Official DVD/VHS/Live » Trouble (US) - 1982 cable show (2006) [DVDRip]
  • 86
  • http://1.bp.blogspot.com/-oao-ju718eA/ULnv9wDeeXI/AAAAAAAAFmM/_nMTpZcz548/s400/TROUBLE%2B-%2BPsalm%2B9.jpg

    https://pbs.twimg.com/media/A9Bmpt3CUAACwBt.jpg

    Artist: Trouble
    Release: Psalm 9 - Bonus DVD
    Genre: Heavy / Power Metal
    Country: USA (Chicago, Illinois)
    Format: DIVX AVI 720x540
    Hidden Link

    MediaInfo:
    MediaInfo

    Complete name : C:\Users\daniele\Trouble - 1982 cable show.avi
    Format : AVI
    Format/Info : Audio Video Interleave
    File size : 319 MiB
    Duration : 19mn 12s
    Overall bit rate : 2 319 Kbps
    Movie name : PSALM_9
    Writing application : MEncoder dev-SVN-rUNKNOWN-3.4.2
    Writing library : MPlayer

    Video
    ID : 0
    Format : MPEG-4 Visual
    Format profile : Simple@L1
    Format settings, BVOP : No
    Format settings, QPel : No
    Format settings, GMC : No warppoints
    Format settings, Matrix : Default (H.263)
    Codec ID : DIVX
    Codec ID/Info : Project Mayo
    Codec ID/Hint : DivX 4
    Duration : 19mn 12s
    Bit rate : 2 179 Kbps
    Width : 720 pixels
    Height : 540 pixels
    Display aspect ratio : 4:3
    Frame rate : 23.976 fps
    Color space : YUV
    Chroma subsampling : 4:2:0
    Bit depth : 8 bits
    Scan type : Progressive
    Compression mode : Lossy
    Bits/(Pixel*Frame) : 0.234
    Stream size : 299 MiB (94%)
    Writing library : Lavc51.11.0

    Audio
    ID : 1
    Format : MPEG Audio
    Format version : Version 1
    Format profile : Layer 3
    Mode : Joint stereo
    Mode extension : MS Stereo
    Codec ID : 55
    Codec ID/Hint : MP3
    Duration : 19mn 12s
    Bit rate mode : Constant
    Bit rate : 128 Kbps
    Channel(s) : 2 channels
    Sampling rate : 48.0 KHz
    Compression mode : Lossy
    Stream size : 17.6 MiB (6%)
    Alignment : Aligned on interleaves
    Interleave, duration : 24 ms (0.58 video frame)
    Writing library : LAME3.97 (beta)


    TROUBLE - Psalm 9 - Bonus DVD (2006) incl. Public Access Cable Show, 1982:

    1. Exclusive Interview Pt. 1
    2. Assassin (live)
    3. Exclusive Interview Pt. 2
    4. Psalm 9 (live)
    5. Exclusive Interview Pt. 3
    6. Victim of the Insane (live)
    User avatar
    Bringer of Steel
    Status:Offline
    Name: Daniele
    Rank: Bringer of Steel
    Location: Ascoli Piceno
    Posts: 242

    Reputation: 10312
    Topics Solved: 31

    « Return to Official DVD/VHS/Live



    Related Topics  Author   Replies   Views 
    related [REQS] Rapid Tears (Can) - Live at Cable TV Canada [DVD] (1982)

    Strappado

    1

    1234

    related NoB (Jpn) - History of NoB Bonus DVD (2006) [DVDRip]

    anthemloudness

    0

    281

    related Bathory (Swe) - In Memory of Quorthon (2006) [DVDRip]

    inflames42

    0

    785

    related Annihilator (Can) - Ten Years in Hell (2006) [DVDRip]

    canadaspaceman

    0

    450

    related Trouble (US) - Demo (1982)

    sacreddeath

    0

    805

    related Trouble (US) - Live in Chicago [Bootleg] (1982)

    mevistox5

    3

    1350

    related [REQS] Trouble (Swe) - Stand Up for Rock [Demo] (1982)

    Abramalin

    1

    319


    « Previous topic | Next topic »

    Who is online
    Users browsing this forum: No registered users and 1 guest